Red Notice (2021) 1080p NF WEB-DL x265 HEVC 10bit DDP 5.1-Vyndros

Posted in: Movies / WebRip / WEB-DL | By: vamfim | 7-12-2021, 21:33 | 0 Comments
07
December
2021
Genres: ActionComedyCrimeThriller | Language: English
3.7 GB | 1 hour 57 min | x265 | 1080p | MKV

When an Interpol-issued Red Notice the highest level warrant to hunt and capture the world’s most wanted goes out, the FBI’s top profiler John Hartley (Dwayne Johnson) is on the case. His global pursuit finds him smack dab in the middle of a daring heist where he’s forced to partner with the world’s greatest art thief Nolan Booth (Ryan Reynolds) in order to catch the world’s most wanted art thief, “The Bishop” (Gal Gadot). The high-flying adventure that ensues takes the trio around the world, across the dance floor, trapped in a secluded prison, into the jungle and, worst of all for them, constantly into each other’s company.

General:
Format : Matroska
Format version : Version 4 / Version 2
File size : 3.66 GiB
Duration : 1 h 57 min
Overall bit rate : 4 446 kb/s
Movie name : Red Notice (2021)
Encoded date : UTC 2021-11-16 08:28:52
Writing application : mkvmerge v59.0.0 ('Shining Star') 64-bit
Writing library : libebml v1.4.2 + libmatroska v1.6.4

Video:
Format : HEVC
Format/Info : High Efficiency Video Coding
Format profile : Main [email protected]@Main
Codec ID : V_MPEGH/ISO/HEVC
Duration : 1 h 57 min
Bit rate : 3 676 kb/s
Width : 1 920 pixels
Height : 804 pixels
Display aspect ratio : 2.40:1
Frame rate mode : Constant
Frame rate : 24.000 FPS
Color space : YUV
Chroma subsampling : 4:2:0
Bit depth : 10 bits
Bits/(Pixel*Frame) : 0.099
Stream size : 3.03 GiB (83%)
Writing library : x265 3.5+12+14-106329cbd:[Windows][GCC 10.3.0][64 bit] 10bit

Audio:
Format : E-AC-3
Format/Info : Enhanced Audio Coding 3
Format settings, Endianness : Big
Codec ID : A_EAC3
Duration : 1 h 57 min
Bit rate mode : Constant
Bit rate : 768 kb/s
Channel(s) : 6 channels
Channel positions : Front: L C R, Side: L R, LFE
Sampling rate : 48.0 kHz
Frame rate : 187.500 FPS (256 spf)
Compression mode : Lossy
Stream size : 648 MiB (17%)
Language : English
Default : No
Forced : No

Subtitle: English

Director: Rawson Marshall Thurber
Writer: Rawson Marshall Thurber
Starring: Dwayne Johnson , Ryan Reynolds , Gal Gadot
IMDB: 6.4/10 | URL: https://www.imdb.com/title/tt7991608/

Download Links:


Report Dead Link(s)
0 Votes
Note:
Only Registed user can add comment, view hidden links and more, please register now
все шаблоны для dle на сайте шаблоны dle 11.2 скачать