Reminiscence (2021) 1080p HMAX WEB-DL x265 HEVC 10bit DDP 5.1-Vyndros

Posted in: Movies / WebRip / WEB-DL | By: vamfim | 30-08-2021, 11:24 | 0 Comments
30
August
2021
Genres: MysteryRomanceSci-FiThriller | Language: English
3.1 GB | 1 hour 55 min | x265 | 1080p | MKV

Nick Bannister, a private investigator of the mind, navigates the alluring world of the past when his life is changed by new client Mae. A simple case becomes an obsession after she disappears and he fights to learn the truth about her.

General:
Format : Matroska
Format version : Version 4 / Version 2
File size : 3.10 GiB
Duration : 1 h 55 min
Overall bit rate : 3 833 kb/s
Movie name : Reminiscence (2021)
Encoded date : UTC 2021-08-25 05:45:25
Writing application : mkvmerge v59.0.0 ('Shining Star') 64-bit
Writing library : libebml v1.4.2 + libmatroska v1.6.4

Video:
Format : HEVC
Format/Info : High Efficiency Video Coding
Format profile : Main [email protected]@Main
Codec ID : V_MPEGH/ISO/HEVC
Duration : 1 h 55 min
Bit rate : 3 063 kb/s
Width : 1 920 pixels
Height : 800 pixels
Display aspect ratio : 2.40:1
Frame rate mode : Constant
Frame rate : 23.976 (24000/1001) FPS
Color space : YUV
Chroma subsampling : 4:2:0
Bit depth : 10 bits
Bits/(Pixel*Frame) : 0.083
Stream size : 2.48 GiB (80%)
Writing library : x265 3.5+12+14-106329cbd:[Windows][GCC 10.3.0][64 bit] 10bit

Audio:
Format : E-AC-3
Format/Info : Enhanced Audio Coding 3
Format settings, Endianness : Big
Codec ID : A_EAC3
Duration : 1 h 55 min
Bit rate mode : Constant
Bit rate : 768 kb/s
Channel(s) : 6 channels
Channel positions : Front: L C R, Side: L R, LFE
Sampling rate : 48.0 kHz
Frame rate : 187.500 FPS (256 spf)
Compression mode : Lossy
Stream size : 637 MiB (20%)
Language : English
Default : No
Forced : No

Subtitle : English

Director:
Lisa Joy
Budget:
 $54–68 million
Starring: Hugh Jackman , Rebecca Ferguson , Thandiwe Newton
IMDB: 5.9/10 | URL: https://www.imdb.com/title/tt3272066/

Download Links:


Report Dead Link(s)
0 Votes
Note:
Only Registed user can add comment, view hidden links and more, please register now
все шаблоны для dle на сайте шаблоны dle 11.2 скачать