Mortal Kombat (2021) 1080p HMAX Webrip x265 10bit EAC3 5.1 Atmos-Goki [TAoE]

Posted in: Movies / WebRip / WEB-DL | By: vamfim | 24-04-2021, 12:22 | 0 Comments
24
April
2021
Genres: ActionAdventureFantasySci-FiThriller | Language: English
2.97 GB | 1 hour 50 min | x265 | 1080p | MKV

MMA fighter Cole Young (Lewis Tan), accustomed to taking a beating for money, is unaware of his heritage-or why Outworld's Emperor Shang Tsung (Chin Han) has sent his best warrior, Sub-Zero (Joe Taslim), an otherworldly Cryomancer, to hunt Cole down. Fearing for his family's safety, Cole goes in search of Sonya Blade (Jessica McNamee) at the direction of Jax (Mehcad Brooks), a Special Forces Major who bears the same strange dragon marking Cole was born with. Soon, he finds himself at the temple of Lord Raiden (Tadanobu Asano), an Elder God and the protector of Earthrealm, who grants sanctuary to those who bear the mark. Here, Cole trains with experienced warriors Liu Kang (Ludi Lin), Kung Lao (Max Huang) and rogue mercenary Kano (Josh Lawson), as he prepares to stand with Earth's greatest champions against the enemies of Outworld in a high stakes battle for the universe. But will Cole be pushed hard enough to unlock his arcana-the immense power from within his soul-in time to save not...

Video:
Format : HEVC
Format/Info : High Efficiency Video Coding
Format profile : Main 10@L4@Main
Codec ID : V_MPEGH/ISO/HEVC
Duration : 1 h 50 min
Bit rate : 3 023 kb/s
Width : 1 920 pixels
Height : 816 pixels
Display aspect ratio : 2.35:1
Frame rate mode : Constant
Frame rate : 23.976 (24000/1001) FPS
Color space : YUV
Chroma subsampling : 4:2:0
Bit depth : 10 bits
Bits/(Pixel*Frame) : 0.080
Stream size : 2.32 GiB (78%)
Title : Encoded by Goki for TAoE using Choryu V12bw
Writing library : x265 3.4:[Linux][GCC 7.5.0][64 bit] 10bit

Audio:
Format : E-AC-3
Format/Info : Enhanced Audio Coding 3
Format profile : E-AC-3+Atmos / E-AC-3
Codec ID : A_EAC3
Duration : 1 h 50 min
Bit rate mode : Constant
Bit rate : 768 kb/s
Channel(s) : 15 objects / 6 channels
Channel positions : 15 objects / Front: L C R, Side: L R, LFE
Sampling rate : 48.0 kHz
Frame rate : 187.500 FPS (256 SPF)
Bit depth : 32 bits
Compression mode : Lossy
Stream size : 604 MiB (20%)
Language : English
Service kind : Complete Main
Default : Yes
Forced : No
Statistics Tags Issue : mkvpropedit v19.0.0 ('Brave Captain') 64-bit 2021-04-23 17:50:13 / Lavf58.45.100
FromStats_BitRate : 768003
FromStats_Duration : 01:50:01.280000000
FromStats_FrameCount : 206291
FromStats_StreamSize : 633725952

Subtitle #1: English
Subtitle #2: Spanish

Director:
Simon McQuoid
Budget: 
$50 million
Starring: Lewis Tan , Jessica McNamee , Josh Lawson , Joe Taslim
IMDB: 6.6/10 | URL: https://www.imdb.com/title/tt0293429/

Download Links:


Report Dead Link(s)
0 Votes
Note:
Only Registed user can add comment, view hidden links and more, please register now
все шаблоны для dle на сайте шаблоны dle 11.2 скачать