Nobody (2021) 1080p AMZN Webrip x265 10bit EAC3 5.1-Goki [TAoE]

Posted in: Movies / WebRip / WEB-DL | By: vamfim | 18-04-2021, 19:22 | 0 Comments
18
April
2021
Genres: ActionCrimeThriller | Language: English
3.8 GB | 1 hour 31 min | x265 | 1080p | MKV

Emmy winner Bob Odenkirk (Better Call Saul, The Post, Nebraska) stars as Hutch Mansell, an underestimated and overlooked dad and husband, taking life's indignities on the chin and never pushing back. A nobody. When two thieves break into his suburban home one night, Hutch declines to defend himself or his family, hoping to prevent serious violence. His teenage son, Blake (Gage Munroe, The Shack), is disappointed in him and his wife, Becca (Connie Nielsen, Wonder Woman), seems to pull only further away. The aftermath of the incident strikes a match to Hutch's long-simmering rage, triggering dormant instincts and propelling him on a brutal path that will surface dark secrets and lethal skills. In a barrage of fists, gunfire and squealing tires, Hutch must save his family from a dangerous adversary (famed Russian actor Aleksey Serebryakov, Amazon's McMafia)-and ensure that he will never be underestimated as a nobody again.

Video:
Format : HEVC
Format/Info : High Efficiency Video Coding
Format profile : Main 10@L4@Main
Codec ID : V_MPEGH/ISO/HEVC
Duration : 1 h 31 min
Bit rate : 5 216 kb/s
Width : 1 920 pixels
Height : 800 pixels
Display aspect ratio : 2.40:1
Frame rate mode : Constant
Frame rate : 23.976 (24000/1001) FPS
Color space : YUV
Chroma subsampling : 4:2:0
Bit depth : 10 bits
Bits/(Pixel*Frame) : 0.142
Stream size : 3.34 GiB (87%)
Title : Encoded by Goki for TAoE using Choryu V12bw
Writing library : x265 3.4:[Linux][GCC 7.5.0][64 bit] 10bit

Audio:
Format : E-AC-3
Format/Info : Enhanced Audio Coding 3
Codec ID : A_EAC3
Duration : 1 h 31 min
Bit rate mode : Constant
Bit rate : 640 kb/s
Channel(s) : 6 channels
Channel positions : Front: L C R, Side: L R, LFE
Sampling rate : 48.0 kHz
Frame rate : 187.500 FPS (256 SPF)
Bit depth : 32 bits
Compression mode : Lossy
Stream size : 420 MiB (11%)
Language : English
Service kind : Complete Main
Default : Yes
Forced : No
Statistics Tags Issue : mkvpropedit v19.0.0 ('Brave Captain') 64-bit 2021-04-17 18:53:11 / Lavf58.45.100
FromStats_BitRate : 640003
FromStats_Duration : 01:31:40.448000000
FromStats_FrameCount : 171890
FromStats_StreamSize : 440038400

Subtitle: English

Director:
Ilya Naishuller
Budget:
16 million USD
Box Office:
 $21.3 million
Starring: Bob Odenkirk , Aleksey Serebryakov , Connie Nielsen , Christopher Lloyd
IMDB: 7.5/10 | URL: https://www.imdb.com/title/tt7888964/

Download Links:


Report Dead Link(s)
0 Votes
Note:
Only Registed user can add comment, view hidden links and more, please register now
все шаблоны для dle на сайте шаблоны dle 11.2 скачать