Coursera - Coding the Matrix Linear Algebra through Computer Science Applications

Posted in: Tutorials | By: mitsumi | 31-07-2019, 13:34 | 0 Comments
31
July
2019
Coursera - Coding the Matrix Linear Algebra through Computer Science  Applications

Coursera - Coding the Matrix: Linear Algebra through Computer Science Applications
WEBRip | English | MP4 + PDF Guides | 960 x 540 | AVC ~210 kbps | 29.970 fps
AAC | 128 Kbps | 44.1 KHz | 2 channels | ~20 hours | 2.77 GB
Genre: eLearning Video / Science, Mathematics, Linear Algebra

When you take a digital photo with your phone or transform the image in Photoshop, when you play a video game or watch a movie with digital effects, when you do a web search or make a phone call, you are using technologies that build upon linear algebra.

Linear algebra provides concepts that are crucial to many areas of computer science, including graphics, image processing, cryptography, machine learning, computer vision, optimization, graph algorithms, quantum computation, computational biology, information retrieval and web search. Linear algebra in turn is built on two basic elements, the matrix and the vector.

In this class, you will learn the concepts and methods of linear algebra, and how to use them to think about problems arising in computer science. You will write small programs in the programming language Python to implement basic matrix and vector functionality and algorithms, and use these to process real-world data to achieve such tasks as: two-dimensional graphics transformations, face morphing, face detection, image transformations such as blurring and edge detection, image perspective removal, classification of tumors as malignant or benign, integer factorization, error-correcting codes, and secret-sharing.

Syllabus
The Function
The Field
The Vector
The Vector Space
The Matrix
The Basis
Dimension
Gaussian Elimination
The Inner Product
Orthogonalization
Taught by Phil Klein

General
Complete name : CCoding the Matrix Linear Algebra through Computer Science Applications 4.2 The Basis Algorithms for finding a set of generators.mp4
Format : MPEG-4
Format profile : Base Media
Codec ID : isom (isom/iso2/avc1/mp41)
File size : 12.3 MiB
Duration : 4 min 58 s
Overall bit rate mode : Variable
Overall bit rate : 345 kb/s
Writing application : Lavf55.1.100

Video
ID : 1
Format : AVC
Format/Info : Advanced Video Codec
Format profile : High@L3.1
Format settings : CABAC / 4 Ref Frames
Format settings, CABAC : Yes
Format settings, RefFrames : 4 frames
Codec ID : avc1
Codec ID/Info : Advanced Video Coding
Duration : 4 min 58 s
Bit rate : 210 kb/s
Width : 960 pixels
Height : 540 pixels
Display aspect ratio : 16:9
Frame rate mode : Constant
Frame rate : 29.970 (30000/1001) FPS
Color space : YUV
Chroma subsampling : 4:2:0
Bit depth : 8 bits
Scan type : Progressive
Bits/(Pixel*Frame) : 0.013
Stream size : 7.47 MiB (61%)
Writing library : x264 core 130 r2 c832fe9
Encoding settings : cabac=1 / ref=3 / deblock=1:0:0 / analyse=0x3:0x113 / me=hex / subme=7 / psy=1 / psy_rd=1.00:0.00 / mixed_ref=1 / me_range=16 / chroma_me=1 / trellis=1 / 8x8dct=1 / cqm=0 / deadzone=21,11 / fast_pskip=1 / chroma_qp_offset=-2 / threads=12 / lookahead_threads=2 / sliced_threads=0 / nr=0 / decimate=1 / interlaced=0 / bluray_compat=0 / constrained_intra=0 / bframes=3 / b_pyramid=2 / b_adapt=1 / b_bias=0 / direct=1 / weightb=1 / open_gop=0 / weightp=2 / keyint=250 / keyint_min=25 / scenecut=40 / intra_refresh=0 / rc_lookahead=40 / rc=crf / mbtree=1 / crf=28.0 / qcomp=0.60 / qpmin=0 / qpmax=69 / qpstep=4 / ip_ratio=1.40 / aq=1:1.00

Audio
ID : 2
Format : AAC
Format/Info : Advanced Audio Codec
Format profile : LC
Codec ID : mp4a-40-2
Duration : 4 min 58 s
Duration_LastFrame : -9 ms
Bit rate mode : Variable
Bit rate : 128 kb/s
Channel(s) : 2 channels
Channel positions : Front: L R
Sampling rate : 44.1 kHz
Frame rate : 43.066 FPS (1024 SPF)
Compression mode : Lossy
Stream size : 4.52 MiB (37%)
Default : Yes
Alternate group : 1

Screenshots









Download link:

rapidgator_net:
https://rapidgator.net/file/24a54e049b19bdde2aa66f0d37cb234e/9hj38.Coursera..Coding.the.Matrix.Linear.Algebra.through.Computer.Science.Applications.part01.rar.html
https://rapidgator.net/file/e96fbf7343231f91b49d1e152a3f5eea/9hj38.Coursera..Coding.the.Matrix.Linear.Algebra.through.Computer.Science.Applications.part02.rar.html
https://rapidgator.net/file/ed6bae356ff532ac242f0b0cd85937da/9hj38.Coursera..Coding.the.Matrix.Linear.Algebra.through.Computer.Science.Applications.part03.rar.html
https://rapidgator.net/file/9f660662ecd1171cb2dadf60181faf5a/9hj38.Coursera..Coding.the.Matrix.Linear.Algebra.through.Computer.Science.Applications.part04.rar.html
https://rapidgator.net/file/4d5ed937a9932aae3740c004aa526897/9hj38.Coursera..Coding.the.Matrix.Linear.Algebra.through.Computer.Science.Applications.part05.rar.html
https://rapidgator.net/file/b6f968052e38968d21c4a8c42451a54b/9hj38.Coursera..Coding.the.Matrix.Linear.Algebra.through.Computer.Science.Applications.part06.rar.html
https://rapidgator.net/file/e32ee1fb71f40d9d165174c97e00ca03/9hj38.Coursera..Coding.the.Matrix.Linear.Algebra.through.Computer.Science.Applications.part07.rar.html
https://rapidgator.net/file/46e7e65779659bca49fd5cdbe6cd9ee7/9hj38.Coursera..Coding.the.Matrix.Linear.Algebra.through.Computer.Science.Applications.part08.rar.html
https://rapidgator.net/file/d22057f7ec600216eb1c29a190be2046/9hj38.Coursera..Coding.the.Matrix.Linear.Algebra.through.Computer.Science.Applications.part09.rar.html
https://rapidgator.net/file/9f03152f69d3986220d022e58ec3de97/9hj38.Coursera..Coding.the.Matrix.Linear.Algebra.through.Computer.Science.Applications.part10.rar.html

nitroflare_com:
http://nitroflare.com/view/B92DC34CD6F4E90/9hj38.Coursera..Coding.the.Matrix.Linear.Algebra.through.Computer.Science.Applications.part01.rar
http://nitroflare.com/view/C155B5E8D1BA9A3/9hj38.Coursera..Coding.the.Matrix.Linear.Algebra.through.Computer.Science.Applications.part02.rar
http://nitroflare.com/view/973FA96C2B7BF71/9hj38.Coursera..Coding.the.Matrix.Linear.Algebra.through.Computer.Science.Applications.part03.rar
http://nitroflare.com/view/5B708DF0C95AC3C/9hj38.Coursera..Coding.the.Matrix.Linear.Algebra.through.Computer.Science.Applications.part04.rar
http://nitroflare.com/view/BBA3E6EEF277110/9hj38.Coursera..Coding.the.Matrix.Linear.Algebra.through.Computer.Science.Applications.part05.rar
http://nitroflare.com/view/9BCDF8D7606DA1C/9hj38.Coursera..Coding.the.Matrix.Linear.Algebra.through.Computer.Science.Applications.part06.rar
http://nitroflare.com/view/3FE4FA2C308172F/9hj38.Coursera..Coding.the.Matrix.Linear.Algebra.through.Computer.Science.Applications.part07.rar
http://nitroflare.com/view/8984C6E856A56F3/9hj38.Coursera..Coding.the.Matrix.Linear.Algebra.through.Computer.Science.Applications.part08.rar
http://nitroflare.com/view/4299949096A5607/9hj38.Coursera..Coding.the.Matrix.Linear.Algebra.through.Computer.Science.Applications.part09.rar
http://nitroflare.com/view/843A1DFBF5F0A5D/9hj38.Coursera..Coding.the.Matrix.Linear.Algebra.through.Computer.Science.Applications.part10.rar

uploadgig_com:
https://uploadgig.com/file/download/Ba36614E9d00b334/9hj38.Coursera..Coding.the.Matrix.Linear.Algebra.through.Computer.Science.Applications.part01.rar
https://uploadgig.com/file/download/D1317cebbEc15d7a/9hj38.Coursera..Coding.the.Matrix.Linear.Algebra.through.Computer.Science.Applications.part02.rar
https://uploadgig.com/file/download/76cc29C918b02E6e/9hj38.Coursera..Coding.the.Matrix.Linear.Algebra.through.Computer.Science.Applications.part03.rar
https://uploadgig.com/file/download/7c3ba9d8f9575bD6/9hj38.Coursera..Coding.the.Matrix.Linear.Algebra.through.Computer.Science.Applications.part04.rar
https://uploadgig.com/file/download/d3219Bd0093148bC/9hj38.Coursera..Coding.the.Matrix.Linear.Algebra.through.Computer.Science.Applications.part05.rar
https://uploadgig.com/file/download/67b00932Fc6C4268/9hj38.Coursera..Coding.the.Matrix.Linear.Algebra.through.Computer.Science.Applications.part06.rar
https://uploadgig.com/file/download/52Bb6B6e5a7eB54e/9hj38.Coursera..Coding.the.Matrix.Linear.Algebra.through.Computer.Science.Applications.part07.rar
https://uploadgig.com/file/download/1194cC4e69Cba5Cc/9hj38.Coursera..Coding.the.Matrix.Linear.Algebra.through.Computer.Science.Applications.part08.rar
https://uploadgig.com/file/download/DE4a106B4c5a7edB/9hj38.Coursera..Coding.the.Matrix.Linear.Algebra.through.Computer.Science.Applications.part09.rar
https://uploadgig.com/file/download/B85f9e33A9694063/9hj38.Coursera..Coding.the.Matrix.Linear.Algebra.through.Computer.Science.Applications.part10.rar


Links are Interchangeable - No Password - Single Extraction

Report Dead Link(s)
0 Votes
Note:
Only Registed user can add comment, view hidden links and more, please register now
все шаблоны для dle на сайте шаблоны dle 11.2 скачать