Eternals (2021) 1080p Webrip x265 10bit EAC3 5.1 Atmos - JBENT [TAoE]

Posted in: Movies / WebRip / WEB-DL | By: vamfim | 12-01-2022, 20:48 | 0 Comments
12
January
2022
Genres: ActionAdventureFantasySci-Fi | Language: English
3.94 GB | 2 hours 36 min | x265 | 1080p | MKV

Following the events of Avengers: Endgame (2019), an unexpected tragedy forces the Eternals, ancient aliens who have been living on Earth in secret for thousands of years, out of the shadows to reunite against mankind's most ancient enemy, the Deviants.

General:
Complete name: Eternals (2021) (1080p Webrip x265 10bit EAC3 5.1 Atmos - JBENT)[TAoE].mkv
Format: Matroska
Format version: Version 4
File size: 3.94 GiB
Duration: 2 h 36 min
Overall bit rate: 3 611 kb/s
Encoded date: UTC 2022-01-12 08:30:36
Writing application: mkvmerge v61.0.0 ('So') 64-bit
Writing library: libebml v1.4.2 + libmatroska v1.6.4

Video:
Format: HEVC
Format/Info: High Efficiency Video Coding
Format profile: Main [email protected]@Main
Codec ID: V_MPEGH/ISO/HEVC
Duration: 2 h 36 min
Bit rate: 2 843 kb/s
Width: 1 920 pixels
Height: 804 pixels
Display aspect ratio: 2.40:1
Frame rate mode: Constant
Frame rate: 23.976 (24000/1001) FPS
Color space: YUV
Chroma subsampling: 4:2:0
Bit depth: 10 bits
Bits/(Pixel*Frame): 0.077
Stream size: 3.10 GiB (79%)
Writing library: x265 3.5+9-bf91444e0:[Windows][GCC 10.2.0][64 bit] 10bit

Audio:
Format: E-AC-3 JOC
Format/Info: Enhanced AC-3 with Joint Object Coding
Commercial name: Dolby Digital Plus with Dolby Atmos
Codec ID: A_EAC3
Duration: 2 h 35 min
Bit rate mode: Constant
Bit rate: 768 kb/s
Channel(s): 6 channels
Channel layout: L R C LFE Ls Rs
Sampling rate: 48.0 kHz
Frame rate: 31.250 FPS (1536 SPF)
Compression mode: Lossy
Stream size: 856 MiB (21%)
Language: English
Service kind: Complete Main
Default: Yes
Forced: No

Subtitle #1 : English
Subtitle #2 : Spanish

Director:
Chloé Zhao
Box office:
 $401.8 million
Starring: Gemma Chan , Richard Madden , Angelina Jolie
IMDB: 6.7/10 | URL: https://www.imdb.com/title/tt9032400/

Download Links:


Report Dead Link(s)
0 Votes
Note:
Only Registed user can add comment, view hidden links and more, please register now
все шаблоны для dle на сайте шаблоны dle 11.2 скачать