Don't Breathe 2 (2021) 1080p AMZN Webrip x265 10bit EAC3 5 1-ArcX [TAoE]

Posted in: Movies / WebRip / WEB-DL | By: vamfim | 14-09-2021, 11:05 | 0 Comments
14
September
2021
Genres: HorrorThriller | Language: English
1.97 GB | 1 hour 38 min | x265 | 1080p | MKV

Hiding out for years in an isolated cabin, Norman Nordstrom has taken in and raised a young girl orphaned from a house fire. Their quiet existence is shattered when a group of kidnappers show up and take the girl, forcing Norman to leave his safe haven to save her.

General:
Complete name : Dont Breathe 2 (2021) (1080p AMZN Webrip x265 10bit EAC3 5 1 - ArcX)[TAoE].mkv
Format: Matroska
Format version: Version 4
File size: 1.97 GiB
Duration: 1 h 38 min
Overall bit rate: 2 871 kb/s
Movie name: Dont Breathe 2 (2021) (1080p AMZN Webrip x265 10bit EAC3 5 1 - ArcX)[TAoE].mkv
Writing application: Lavf58.29.100
Writing library: Lavf58.29.100
ErrorDetectionType: Per level 1

Video:
Format: HEVC
Format/Info: High Efficiency Video Coding
Format profile: Main [email protected]@Main
Codec ID: V_MPEGH/ISO/HEVC
Duration: 1 h 38 min
Bit rate: 2 228 kb/s
Width: 1 920 pixels
Height: 800 pixels
Display aspect ratio: 2.40:1
Frame rate mode: Constant
Frame rate: 23.976 (24000/1001) FPS
Color space: YUV
Chroma subsampling: 4:2:0
Bit depth: 10 bits
Bits/(Pixel*Frame): 0.060
Stream size: 1.53 GiB (78%)
Title: Encoded by ArcX for TAoE using Kori-Web V1.0
Writing library: x265 3.2.1+1-b5c86a64bbbe:[Linux][GCC 9.2.1][64 bit] 10bit

Audio:
Format: E-AC-3
Format/Info: Enhanced AC-3
Commercial name: Dolby Digital Plus
Codec ID: A_EAC3
Duration: 1 h 38 min
Bit rate mode: Constant
Bit rate: 640 kb/s
Channel(s): 6 channels
Channel layout: L R C LFE Ls Rs
Sampling rate: 48.0 kHz
Frame rate: 31.250 FPS (1536 SPF)
Bit depth: 32 bits
Compression mode: Lossy
Stream size: 450 MiB (22%)
Language: English
Service kind: Complete Main
Default: Yes
Forced: No

Subtitle: English

Director:
Rodo Sayagues
Writers: Fede Alvarez, Rodo Sayagues
Starring: Stephen Lang , Madelyn Grace , Brendan Sexton III
IMDB: 6.1/10 | URL: https://www.imdb.com/title/tt6246322/

Download Links:


Report Dead Link(s)
0 Votes
Note:
Only Registed user can add comment, view hidden links and more, please register now
все шаблоны для dle на сайте шаблоны dle 11.2 скачать