The Green Knight (2021) 1080p AMZN WEB-DL x265 HEVC 10bit DDP 5.1-Vyndros

Posted in: Movies / WebRip / WEB-DL | By: vamfim | 30-08-2021, 10:00 | 0 Comments
30
August
2021
Genres: AdventureDramaFantasy | Language: English
3.4 GB | 2 hours 9 min | x265 | 1080p | MKV

An epic fantasy adventure based on the timeless Arthurian legend, "The Green Knight" tells the story of Sir Gawain (Dev Patel), King Arthur's reckless and headstrong nephew, who embarks on a daring quest to confront the eponymous Green Knight, a gigantic emerald-skinned stranger and tester of men. Gawain contends with ghosts, giants, thieves, and schemers in what becomes a deeper journey to define his character and prove his worth in the eyes of his family and kingdom by facing the ultimate challenger. From visionary filmmaker David Lowery comes a fresh and bold spin on a classic tale from the knights of the round table.

General:
Format : Matroska
Format version : Version 4 / Version 2
File size : 3.44 GiB
Duration : 2 h 9 min
Overall bit rate : 3 790 kb/s
Encoded date : UTC 2021-08-25 00:50:08
Writing application : mkvmerge v60.0.0 ('Are We Copies?') 64-bit
Writing library : libebml v1.4.2 + libmatroska v1.6.4

Video
Format : HEVC
Format/Info : High Efficiency Video Coding
Format profile : Main [email protected]@Main
Codec ID : V_MPEGH/ISO/HEVC
Duration : 2 h 9 min
Bit rate : 3 021 kb/s
Width : 1 918 pixels
Height : 1 036 pixels
Display aspect ratio : 1.85:1
Frame rate mode : Constant
Frame rate : 23.976 (24000/1001) FPS
Color space : YUV
Chroma subsampling : 4:2:0
Bit depth : 10 bits
Bits/(Pixel*Frame) : 0.063
Stream size : 2.74 GiB (80%)
Writing library : x265 3.5+12+14-106329cbd:[Windows][GCC 10.3.0][64 bit] 10bit

Audio:
Format : E-AC-3
Format/Info : Enhanced Audio Coding 3
Format settings, Endianness : Big
Codec ID : A_EAC3
Duration : 2 h 9 min
Bit rate mode : Constant
Bit rate : 768 kb/s
Channel(s) : 6 channels
Channel positions : Front: L C R, Side: L R, LFE
Sampling rate : 48.0 kHz
Frame rate : 187.500 FPS (256 spf)
Compression mode : Lossy
Stream size : 713 MiB (20%)
Language : English
Default : No
Forced : No

Subtitle : English

Director:
David Lowery
Writer:
David Lowery
Starring: Dev Patel , Alicia Vikander , Joel Edgerton
IMDB: 6.7/10 | URL:  https://www.imdb.com/title/tt9243804/

Download Links:


Protected Links:
https://filecrypt.co/Container/DDF783C78E.html

Password: 0dayhome.net

Protected Links:
https://filecrypt.co/Container/89D0103104.html

Password: 0dayhome.net

Protected Links:
https://filecrypt.co/Container/B5AF81D06B.html

Password: 0dayhome.net

Report Dead Link(s)
0 Votes
Note:
Only Registed user can add comment, view hidden links and more, please register now
все шаблоны для dle на сайте шаблоны dle 11.2 скачать