The Tomorrow War (2021) 1080p AMZN Webrip x265 10bit EAC3 5.1-Goki [TAoE]

Posted in: Movies / WebRip / WEB-DL | By: vamfim | 7-07-2021, 10:29 | 0 Comments
07
July
2021
Genres: ActionAdventureSci-FiThriller | Language: English
3.41 GB | 2 hours 18 min | x265 | 1080p | MKV

The world is stunned when a group of time travelers arrive from the year 2051 to deliver an urgent message: Thirty years in the future, mankind is losing a global war against a deadly alien species. The only hope for survival is for soldiers and civilians from the present to be transported to the future and join the fight. Among those recruited is high school teacher and family man Dan Forester (Chris Pratt). Determined to save the world for his young daughter, Dan teams up with a brilliant scientist (Yvonne Strahovski) and his estranged father (J.K. Simmons) in a desperate quest to rewrite the fate of the planet.

Video:
Format : HEVC
Format/Info : High Efficiency Video Coding
Format profile : Main [email protected]@Main
Codec ID : V_MPEGH/ISO/HEVC
Duration : 2 h 18 min
Bit rate : 2 825 kb/s
Width : 1 920 pixels
Height : 800 pixels
Display aspect ratio : 2.40:1
Frame rate mode : Constant
Frame rate : 23.976 (24000/1001) FPS
Color space : YUV
Chroma subsampling : 4:2:0
Bit depth : 10 bits
Bits/(Pixel*Frame) : 0.077
Stream size : 2.72 GiB (80%)
Title : Encoded by Goki for TAoE using Choryu V16bw
Writing library : x265 3.4:[Linux][GCC 7.5.0][64 bit] 10bit

Audio:
Format : E-AC-3
Format/Info : Enhanced Audio Coding 3
Codec ID : A_EAC3
Duration : 2 h 18 min
Bit rate mode : Constant
Bit rate  : 640 kb/s
Channel(s) : 6 channels
Channel positions : Front: L C R, Side: L R, LFE
Sampling rate : 48.0 kHz
Frame rate : 187.500 FPS (256 SPF)
Bit depth : 32 bits
Compression mode : Lossy
Stream size : 632 MiB (18%)
Language : English
Service kind : Complete Main
Default  : Yes
Forced  : No

Subtitle #01 : Turkish
Subtitle #02 : Korean
Subtitle #03 : Arabic
Subtitle #04 : German
Subtitle #05 : French
Subtitle #06 : Telugu
Subtitle #07 : Spanish
Subtitle #08 : Indonesian
Subtitle #09 : Czech
Subtitle #10 : Japanese
Subtitle #11 : Romanian
Subtitle #12 : Danish
Subtitle #13 : Malay
Subtitle #14 : Dutch
Subtitle #15 : Fil
Subtitle #16 : Italian
Subtitle #17 : Russian
Subtitle #18 : Finnish
Subtitle #19 : Chinese
Subtitle #20 : Hebrew
Subtitle #21 : Thai
Subtitle #22 : Swedish
Subtitle #23 : Hungarian
Subtitle #24 : English
Subtitle #25 : Portuguese
Subtitle #26 : Tamil
Subtitle #27 : French
Subtitle #28 : Norwegian Bokmal
Subtitle #29 : Hindi
Subtitle #30 : Polish
Subtitle #31 : Spanish

Director:
Chris McKay
Written by: Zach Dean
Starring: Chris Pratt , Yvonne Strahovski , J.K. Simmons
IMDB: 6.7/10 | URL: https://www.imdb.com/title/tt9777666/

Download Links:


Report Dead Link(s)
0 Votes
Note:
Only Registed user can add comment, view hidden links and more, please register now
все шаблоны для dle на сайте шаблоны dle 11.2 скачать