Godzilla vs Kong (2021) 1080p HMAX Webrip x265 10bit EAC3 5.1 Atmos - Goki

Posted in: Movies / WebRip / WEB-DL | By: vamfim | 1-04-2021, 19:43 | 0 Comments
01
April
2021
Genres: ActionSci-FiThriller | Language: English
3.95 GB | 1 hour 53 min | x265 | 1080p | MKV

Legends collide as Godzilla and Kong, the two most powerful forces of nature, clash on the big screen in a spectacular battle for the ages. As a squadron embarks on a perilous mission into fantastic uncharted terrain, unearthing clues to the Titans' very origins and mankind's survival, a conspiracy threatens to wipe the creatures, both good and bad, from the face of the earth forever.

Video:
Format : HEVC
Format/Info : High Efficiency Video Coding
Format profile : Main 10@L4@Main
Codec ID : V_MPEGH/ISO/HEVC
Duration : 1 h 53 min
Bit rate : 4 144 kb/s
Width : 1 920 pixels
Height : 816 pixels
Display aspect ratio : 2.35:1
Frame rate mode : Constant
Frame rate : 23.976 (24000/1001) FPS
Color space : YUV
Chroma subsampling : 4:2:0
Bit depth : 10 bits
Bits/(Pixel*Frame) : 0.110
Stream size : 3.28 GiB (83%)
Title : Encoded by Goki for TAoE using Choryu V12bw
Writing library : x265 3.4:[Linux][GCC 7.5.0][64 bit] 10bit

Audio:
Format : E-AC-3
Format/Info : Enhanced Audio Coding 3
Format profile : E-AC-3+Atmos / E-AC-3
Codec ID : A_EAC3
Duration : 1 h 53 min
Bit rate mode : Constant
Bit rate : 768 kb/s
Channel(s) : 15 objects / 6 channels
Channel positions : 15 objects / Front: L C R, Side: L R, LFE
Sampling rate : 48.0 kHz
Frame rate : 187.500 FPS (256 SPF)
Bit depth : 32 bits
Compression mode : Lossy
Stream size : 622 MiB (15%)
Language : English
Service kind : Complete Main
Default : Yes
Forced : No
Statistics Tags Issue : mkvpropedit v19.0.0 ('Brave Captain') 64-bit 2021-03-31 20:33:19 / Lavf58.45.100
FromStats_BitRate : 768003
FromStats_Duration : 01:53:09.024000000
FromStats_FrameCount : 212158
FromStats_StreamSize : 651749376

Subtitle #1 : English
Subtitle #2 : Spanish

Director:
Adam Wingard
Budget:
 $160–200 million
Starring: Alexander Skarsgård , Millie Bobby Brown , Rebecca Hall , Brian Tyree Henry
IMDB: 7.1/10 | URL:  https://www.imdb.com/title/tt5034838/

Download Links:


Protected Links:
https://filecrypt.co/Container/677850D055.html

Password: 0dayhome.net

Protected Links:
https://filecrypt.co/Container/47CCBFF299.html

Password: 0dayhome.net

Protected Links:
https://filecrypt.co/Container/966FBF7B62.html

Password: 0dayhome.net

Report Dead Link(s)
0 Votes
Note:
Only Registed user can add comment, view hidden links and more, please register now
все шаблоны для dle на сайте шаблоны dle 11.2 скачать