Tom and Jerry (2021) 1080p WEBRip x265 10bit AC3-Musafirboy

Posted in: Movies / WebRip / WEB-DL | By: vamfim | 3-03-2021, 22:15 | 0 Comments
03
March
2021
Genres: AnimationAdventureComedyFamily | Language: English
1.9 GB | 1 hour 41 min | x265 | 1080p | MKV

One of the most beloved rivalries in history is reignited when Jerry moves into New York City’s finest hotel on the eve of “the wedding of the century,” forcing Kayla, the event’s desperate planner, to hire Tom to get rid of him. The ensuing cat and mouse battle threatens to destroy her career, the wedding and possibly the hotel itself. But soon, an even bigger problem arises: a diabolically ambitious staffer conspiring against all three of them. An eye-popping blend of classic animation and live action, Tom and Jerry’s new big-screen adventure stakes new ground for the iconic characters and forces them to do the unthinkable… work together to save the day.

Video:
Format : HEVC
Format/Info : High Efficiency Video Coding
Format profile : Main 10@L5@Main
Codec ID : V_MPEGH/ISO/HEVC
Duration : 1 h 41 min
Bit rate : 2 200 kb/s
Width : 1 920 pixels
Height : 1 040 pixels
Display aspect ratio : 1.85:1
Frame rate mode : Constant
Frame rate : 23.976 (24000/1001) FPS
Color space : YUV
Chroma subsampling : 4:2:0
Bit depth : 10 bits
Bits/(Pixel*Frame) : 0.046
Stream size : 1.55 GiB (83%)
Writing library : x265 v3.5_By:Musafirboy[GCC v10.2][64 bit] 10bit

Audio:
Format : AC-3
Format/Info : Audio Coding 3
Commercial name : Dolby Digital
Codec ID : A_AC3
Duration : 1 h 41 min
Bit rate mode : Constant
Bit rate : 448 kb/s
Channel(s) : 6 channels
Channel layout : L R C LFE Ls Rs
Sampling rate : 48.0 kHz
Frame rate : 31.250 FPS (1536 SPF)
Compression mode : Lossy
Stream size : 324 MiB (17%)
Language : English

Subtitle:
Format : UTF-8
Codec ID : S_TEXT/UTF8
Codec ID/Info : UTF-8 Plain Text
Duration : 1 h 40 min
Bit rate : 89 b/s
Count of elements : 2310
Stream size : 66.0 KiB (0%)
Language : English

Director:
Tim Story
Production Companies:
Warner Animation Group, Turner Entertainment
Starring: Chloë Grace Moretz , Michael Peña , Colin Jost , Tom
IMDB: 5.3/10 | URL: https://www.imdb.com/title/tt1361336/

Download Links:


Report Dead Link(s)
0 Votes
Note:
Only Registed user can add comment, view hidden links and more, please register now
все шаблоны для dle на сайте шаблоны dle 11.2 скачать