Justice Society World War II (2021) 1080p BDRip x265 10bit DTS-HD MA 5.1 + AC3 5.1-Goki [TAoE]

Posted in: Movies / Bluray x265 - 1080p | By: vamfim | 13-05-2021, 18:30 | 0 Comments
13
May
2021
Genres: AnimationActionAdventureFantasySci-Fi | Language: English
3.8 GB | 1 hour 24 min | x265 | 1080p | MKV

The Justice Society of America , a group of heroes aiding the allies in World War 2, acquire an ally from the future who sends them on an adventure that changes history.

Video:
Format : HEVC
Format/Info : High Efficiency Video Coding
Format profile : Main 10@L4@Main
Codec ID : V_MPEGH/ISO/HEVC
Duration : 1 h 24 min
Bit rate : 3 828 kb/s
Width : 1 920 pixels
Height : 1 080 pixels
Display aspect ratio : 16:9
Frame rate mode : Constant
Frame rate : 23.976 (24000/1001) FPS
Color space : YUV
Chroma subsampling : 4:2:0
Bit depth : 10 bits
Bits/(Pixel*Frame) : 0.077
Stream size : 2.25 GiB (59%)
Title : Encoded by Goki for TAoE using Choryu V13bw
Writing library: x265 3.4 :[Linux][GCC 7.5.0][64 bit] 10bit

Audio #1
Format : DTS
Format/Info : Digital Theater Systems
Format profile : MA / Core
Codec ID : A_DTS
Duration : 1 h 24 min
Bit rate mode : Variable / Constant
Bit rate : 1 920 kb/s / 1 509 kb/s
Channel(s) : 6 channels
Channel positions : Front: L C R, Side: L R, LFE
Sampling rate : 48.0 kHz
Frame rate : 93.750 FPS (512 SPF)
Bit depth : 24 bits
Compression mode : Lossless / Lossy
Stream size : 1.14 GiB (30%)
Language : English
Default : Yes
Forced : No

Audio #2
Format : AC-3
Format/Info : Audio Coding 3
Codec ID : A_AC3
Duration : 1 h 24 min
Bit rate mode : Constant
Bit rate : 640 kb/s
Channel(s) : 6 channels
Channel positions : Front: L C R, Side: L R, LFE
Sampling rate : 48.0 kHz
Frame rate : 31.250 FPS (1536 SPF)
Bit depth : 16 bits
Compression mode : Lossy
Stream size : 386 MiB (10%)
Writing library : Lavc58.91.100 ac3
Service kind : Complete Main
Default : No
Forced : No

Subtitle #1 : English
Subtitle #2 : French
Subtitle #3 : German
Subtitle #4 : Spanish
Subtitle #5 : Danish
Subtitle #6 : Finnish
Subtitle #7 : Norwegian
Subtitle #8 : Swedish

Director:
Jeff Wamester
Production Companies:
DC Comics, Warner Bros. Animation
Starring: Stana Katic , Matt Bomer , Omid Abtahi , Geoffrey Arend
IMDB: 6.4/10 | URL: https://www.imdb.com/title/tt13804084/

Download Links:


Report Dead Link(s)
0 Votes
Note:
Only Registed user can add comment, view hidden links and more, please register now
все шаблоны для dle на сайте шаблоны dle 11.2 скачать