Made in Italy (2020) 1080p BDRip x265 10bit AC3 5.1 - r0b0t [TAoE]

Posted in: Movies / Bluray x265 - 1080p | By: vamfim | 15-12-2020, 11:50 | 0 Comments
15
December
2020
Genres: ComedyDramaRomance | Language: English
5.6 GB | 1 hour 33 min | x265 | 1080p | MKV

A bohemian artist travels from London to Italy with his estranged son to sell the house he inherited from his late wife.

Video:
Format : HEVC
Format/Info : High Efficiency Video Coding
Format profile : Main 10@L4@Main
Codec ID : V_MPEGH/ISO/HEVC
Duration : 1 h 33 min
Bit rate : 7 927 kb/s
Width : 1 920 pixels
Height : 1 040 pixels
Display aspect ratio : 1.85:1
Frame rate mode : Variable
Frame rate : 23.976 (23976/1000) FPS
Original frame rate : 23.976 (24000/1001) FPS
Color space : YUV
Chroma subsampling : 4:2:0
Bit depth : 10 bits
Bits/(Pixel*Frame) : 0.166
Stream size : 5.19 GiB (92%)
Title : Encoded by r0b0t for TAoE using Shinguru V2.6
Writing library : x265 3.3+29-1e3dbf09ee4f:[Windows][GCC 9.3.1][64 bit] 10bit

Audio:
Format : AC-3
Format/Info : Audio Coding 3
Commercial name : Dolby Digital
Codec ID : A_AC3
Duration : 1 h 33 min
Bit rate mode : Constant
Bit rate : 640 kb/s
Channel(s) : 6 channels
Channel layout : L R C LFE Ls Rs
Sampling rate : 48.0 kHz
Frame rate : 31.250 FPS (1536 SPF)
Bit depth : 24 bits
Compression mode : Lossy
Stream size : 429 MiB (7%)
Writing library : Lavc58.54.100 ac3
Language : English
Service kind : Complete Main
Default : Yes
Forced : No

Subtitle #1 : English
Subtitle #2 : Spanish

Director: 
James D'Arcy
Starring: Yolanda Kettle , Micheál Richardson , Souad Faress , Liam Neeson
IMDB: 5.7/10 | URL: https://www.imdb.com/title/tt9207700/

Download Links:


Report Dead Link(s)
0 Votes
Note:
Only Registed user can add comment, view hidden links and more, please register now
все шаблоны для dle на сайте шаблоны dle 11.2 скачать