Tenet (2020) 1080p BluRay x265 HEVC 10bit AAC 5.1 - Vyndros

Posted in: Movies / Bluray x265 - 1080p | By: vamfim | 5-12-2020, 20:44 | 0 Comments
05
December
2020
Genres: ActionSci-Fi | Language: English
6.1 GB | 2 hours 30 min | x265 | 1080p | MKV

In a twilight world of international espionage, an unnamed CIA operative, known as The Protagonist, is recruited by a mysterious organization called Tenet to participate in a global assignment that unfolds beyond real time. The mission: prevent Andrei Sator, a renegade Russian oligarch with precognition abilities, from starting World War III. The Protagonist will soon master the art of "time inversion" as a way of countering the threat that is to come.

Video:
Format : HEVC
Format/Info : High Efficiency Video Coding
Format profile : Main 10@L4@Main
Codec ID : V_MPEGH/ISO/HEVC
Duration : 2 h 30 min
Bit rate : 5 337 kb/s
Width : 1 920 pixels
Height : 1 080 pixels
Display aspect ratio : 16:9
Frame rate mode : Constant
Frame rate : 23.976 (24000/1001) FPS
Color space : YUV
Chroma subsampling : 4:2:0
Bit depth : 10 bits
Bits/(Pixel*Frame) : 0.107
Stream size : 5.60 GiB (92%)
Writing library : x265 3.4+12-g9103319fc:[Windows][MSVC 1927][64 bit] 10bit

Audio:
Format : AAC
Format/Info : Advanced Audio Codec
Format profile : LC
Codec ID : A_AAC
Duration : 2 h 30 min
Bit rate : 443 kb/s
Channel(s) : 6 channels
Channel positions : Front: L C R, Side: L R, LFE
Sampling rate : 48.0 kHz
Frame rate : 46.875 FPS (1024 spf)
Compression mode : Lossy
Delay relative to video : 20 ms
Stream size : 476 MiB (8%)
Language : English
Default : Yes
Forced : Yes

Subtitle: English

Director: Christopher Nolan
Box office:
357.8 million USD
Budget:
205 million USD
Starring: John David Washington , Robert Pattinson , Elizabeth Debicki , Juhan Ulfsak
IMDB: 7.7/10 | URL: https://www.imdb.com/title/tt6723592/

Download Links:


Report Dead Link(s)
0 Votes
Note:
Only Registed user can add comment, view hidden links and more, please register now
все шаблоны для dle на сайте шаблоны dle 11.2 скачать