The New Mutants (2020) 1080p BDRip x265 10bit TrueHD 7.1 Atmos - Erie [TAoE]

Posted in: Movies / Bluray x265 - 1080p | By: vamfim | 15-11-2020, 15:52 | 0 Comments
15
November
2020
Genres: ActionHorrorSci-Fi | Language: English
5.8 GB | 1 hour 34 min | x265 | 1080p | MKV

Five young mutants, just discovering their abilities while held in a secret facility against their will, fight to escape their past sins and save themselves.

Video:
Format : HEVC
Format/Info : High Efficiency Video Coding
Format profile : Main 10@L4@Main
Codec ID : V_MPEGH/ISO/HEVC
Duration : 1 h 34 min
Bit rate : 4 336 kb/s
Width : 1 920 pixels
Height : 1 036 pixels
Display aspect ratio : 1.85:1
Frame rate mode : Constant
Frame rate : 23.976 (24000/1001) FPS
Color space : YUV
Chroma subsampling : 4:2:0
Bit depth : 10 bits
Bits/(Pixel*Frame) : 0.091
Stream size : 2.85 GiB (49%)
Writing library : x265 3.4+22-ga988fbbac:[Windows][GCC 10.2.0][64 bit] 10bit

Audio #1:
Format : MLP FBA 16-ch
Format/Info : Meridian Lossless Packing FBA with 16-channel presentation
Commercial name : Dolby TrueHD with Dolby Atmos
Codec ID : A_TRUEHD
Duration : 1 h 34 min
Bit rate mode : Variable
Bit rate : 4 125 kb/s
Maximum bit rate : 8 931 kb/s
Channel(s) : 8 channels
Channel layout : L R C LFE Ls Rs Lb Rb
Sampling rate : 48.0 kHz
Frame rate : 1 200.000 FPS (40 SPF)
Compression mode : Lossless
Stream size : 2.71 GiB (47%)
Language : English
Default : Yes
Forced : No
Number of dynamic objects : 13
Bed channel count : 1 channel
Bed channel configuration : LFE

Audio #2:
Format : AC-3
Format/Info : Audio Coding 3
Commercial name : Dolby Digital
Codec ID : A_AC3
Duration : 1 h 34 min
Bit rate mode : Constant
Bit rate : 192 kb/s
Channel(s) : 2 channels
Channel layout : L R
Sampling rate : 48.0 kHz
Frame rate : 31.250 FPS (1536 SPF)
Compression mode : Lossy
Stream size : 129 MiB (2%)
Title : Commentary by Josh Boone/Bill Sienkiewicz
Language : English
Service kind : Complete Main
Default : No
Forced : No

Subtitle #1 : English
Subtitle #2 : French
Subtitle #3 : German
Subtitle #4 : Spanish

Director:
Josh Boone
Box office: 
$44.4 million
Starring: Maisie Williams , Anya Taylor-Joy , Charlie Heaton , Alice Braga
IMDB: 5.3/10 | URL:  https://www.imdb.com/title/tt4682266/

Download Links:


Protected Links:
https://filecrypt.co/Container/0947A1945A.html

Password: 0dayhome.net

Protected Links:
https://filecrypt.co/Container/5748BB12AC.html

Password: 0dayhome.net

Protected Links:
https://filecrypt.co/Container/DB67CD63B3.html

Password: 0dayhome.net

Report Dead Link(s)
0 Votes
Note:
Only Registed user can add comment, view hidden links and more, please register now
все шаблоны для dle на сайте шаблоны dle 11.2 скачать