Inheritance (2020) 1080p BDRip x265 10bit EAC3 5.1 - r0b0t [TAoE]

Posted in: Movies / Bluray x265 - 1080p | By: vamfim | 30-08-2020, 12:41 | 0 Comments
30
August
2020
Genres: DramaMysteryThriller | Language: English
2.8 GB | 1 hour 51 min | x265 | 1080p | MKV

A patriarch of a wealthy and powerful family suddenly passes away, leaving his daughter with a shocking secret inheritance that threatens to unravel and destroy the family.

Video:
Format : HEVC
Format/Info : High Efficiency Video Coding
Format profile : Main 10@L4@Main
Codec ID : V_MPEGH/ISO/HEVC
Duration : 1 h 51 min
Bit rate : 3 031 kb/s
Width : 1 920 pixels
Height : 800 pixels
Display aspect ratio : 2.40:1
Frame rate mode : Variable
Frame rate : 23.976 FPS
Color space : YUV
Chroma subsampling : 4:2:0
Bit depth : 10 bits
Bits/(Pixel*Frame) : 0.082
Stream size : 2.36 GiB (86%)
Title : Encoded by r0b0t for TAoE using Shinguru V1.8
Writing library : x265 3.2+35-acc5d16999e2:[Windows][GCC 9.2.1][64 bit] 10bit

Audio:
Format : E-AC-3
Format/Info : Enhanced AC-3
Commercial name : Dolby Digital Plus
Codec ID : A_EAC3
Duration : 1 h 51 min
Bit rate mode : Constant
Bit rate : 448 kb/s
Channel(s) : 6 channels
Channel layout : L R C LFE Ls Rs
Sampling rate : 48.0 kHz
Frame rate : 31.250 FPS (1536 SPF)
Bit depth : 24 bits
Compression mode : Lossy
Stream size : 357 MiB (13%)
Writing library : Lavc58.54.100 eac3
Language : English
Service kind : Complete Main
Default : Yes
Forced : No

Subtitle #1 : English
Subtitle #2 : French

Directors: Vaughn Stein
Starring: Lily Collins , Simon Pegg , Connie Nielsen , Chace Crawford
IMDB: 5.5/10 | URL: https://www.imdb.com/title/tt7923220/

Download Links:


Report Dead Link(s)
0 Votes
Note:
Only Registed user can add comment, view hidden links and more, please register now
все шаблоны для dle на сайте шаблоны dle 11.2 скачать